Ich habe bald keine Lust mehr...

Probleme und Fragen zum Fenster "Einstellungen"
Antworten
luttyy
Beiträge: 221
Registriert: 15.12.2008, 04:16

Ich habe bald keine Lust mehr...

Beitrag von luttyy » 05.02.2011, 00:58

Manno....

Nach dem neuesten Update passt dem Programm die Lizenz von dem Compress nicht mehr, findet sie wäre nicht gültig und ich muss wieder irgend etwas im Kundencenter ändern!

Ich verliere da jetzt wirklich die Lust!

Nach jedem Update ist was anderes...

:evil:
obraendl
Beiträge: 47
Registriert: 26.03.2010, 17:01
Wohnort: CH-6015 Reussbuehl

Beitrag von obraendl » 05.02.2011, 11:42

Ich auch langsam, nach dem Bearbeiten mit DVR Studio HD 2 V2.14 und anschlieesendem Export nach m2ts ist kein Ton mehr hoerbar, mit VLC und meinen BD Player, erst ein nochmaliges konvertieren mit TSMuxer ist dann der Ton wieder hoerbar. Habe mit MediaInfo mal nachgeschaut woran das liegen koennte und siehe da, da gibt es zwei Language Eintraege in den Audio Spuren nach der Berabeitung mit DVR Studio HD 2

Vor der Berabeitung, Ton hoerbar

Audio #1
ID : 4352 (0x1100)
Menu ID : 1 (0x1)
Format : AC-3
Format/Info : Audio Coding 3
Mode extension : CM (complete main)
Codec ID : 129
Duration : 2h 39mn
Bit rate mode : Constant
Bit rate : 448 Kbps
Channel(s) : 2 channels
Channel positions : Front: L R
Sampling rate : 48.0 KHz
Bit depth : 16 bits
Compression mode : Lossy
Delay relative to video : 18ms
Stream size : 510 MiB (4%)
Language : German
----------------------------------------------------------

Nach der Berbeitung mit DVR Studio HD 2, kein Ton mehr hoerbar

Audio #1
ID : 4352 (0x1100)
Menu ID : 1 (0x1)
Format : AC-3
Format/Info : Audio Coding 3
Mode extension : CM (complete main)
Codec ID : 129
Duration : 2h 39mn
Bit rate mode : Constant
Bit rate : 448 Kbps
Channel(s) : 2 channels
Channel positions : Front: L R
Sampling rate : 48.0 KHz
Bit depth : 16 bits
Compression mode : Lossy
Delay relative to video : 18ms
Stream size : 510 MiB (4%)
Language : German
Language, more info : Clean effects
-----------------------------------------------------------------

Was dieser EIntrag "Language, more info" soll frage ich mich schon, und bringt vermutlich so ziemlich viele Player durcheinander.

Gruss obraendl
Benutzeravatar
Tobias
Programmierer
Beiträge: 889
Registriert: 31.03.2008, 22:59

Beitrag von Tobias » 05.02.2011, 12:47

Hallo obraendl,

die "zusätzliche" Spracheinstellung sollte kein Problem machen.
Es handelt sich hier auch nicht um eine zweite, sondern um einen normalen Descriptor.
Der sollte eigentlich keine Probleme machen.

Ich habe eben auch zum Test eine 3sat Aufnahme mit der 2.14 als M2TS exportiert und habe im VLC bei der MP2 und AC3-Spur Ton.
MfG
Tobias
obraendl
Beiträge: 47
Registriert: 26.03.2010, 17:01
Wohnort: CH-6015 Reussbuehl

Beitrag von obraendl » 06.02.2011, 11:48

@Tobias

Danke fuer die Info, habe den Fehler gefunden, habe Win7 64Bit und das hat so seine Tuecken, ich hatte in den Einstellungen fuer Audio Decoder die Microsoft DVD Decoder drin gehabt, das sind 64Bit, nach dem Umstellen auf Haenlein AC3 und MPEG Decoder laeufts dann, nichts fuer ungut. Danke auch fuer die m2ts Audio Description, langsam gefaellt mir das Programm.

Gruss obraendl
Antworten

Zurück zu „Fenster Einstellungen“